Titanic's Final Moments torrent download

seeders: 546
leechers: 437
updated:
Added ago by tornet ***** in Movies
Torrent Downloaded 10 times.
Info Hash: EE9ADF5001F11C4FB50BCC5DF10482144FE2779F


Torrent Files

Titanic's Final Moments (Size: 108.0 MB)
  Titanic's Final Moments 108.0 MB

Torrent Description





General

Complete name Titanic's Final Moments - The True Story.mp4

Format : MPEG-4
Format profile : Base Media
Codec ID : isom (isom/iso2/avc1/mp41)
File size : 108 MiB
Duration : 46 min 38 s
Overall bit rate : 324 kb/s
Writing application : Lavf54.63.104
Video
ID : 1
Format : AVC
Format/Info : Advanced Video Codec
Format profile : [email protected]
Format settings : CABAC / 3 Ref Frames
Format settings, CABAC : Yes
Format settings, ReFrames : 3 frames
Codec ID : avc1
Codec ID/Info : Advanced Video Coding
Duration : 46 min 38 s
Bit rate : 192 kb/s
Width : 640 pixels
Height : 352 pixels
Display aspect ratio : 16:9
Frame rate mode : Constant
Frame rate : 25.000 FPS
Color space : YUV
Chroma subsampling : 4:2:0
Bit depth : 8 bits
Scan type : Progressive
Bits/(Pixel*Frame) : 0.034
Stream size : 64.0 MiB (59%)
Codec configuration box : avcC
Audio
ID : 2
Format : AAC LC
Format/Info : Advanced Audio Codec Low Complexity
Codec ID : mp4a-40-2
Duration : 46 min 38 s
Bit rate mode : Constant
Bit rate : 126 kb/s
Channel(s) : 2 channels
Channel layout : L R
Sampling rate : 44.1 kHz
Frame rate : 43.066 FPS (1024 SPF)
Compression mode : Lossy
Stream size : 41.9 MiB (39%)
Default : Yes
Alternate group : 1

Please ...Seed... Thank you



Related Torrents

torrent name size age seed leech
19.9 MB 3 minutes 102 193
1.0 GB 7 minutes 285 166
607.5 MB 11 minutes 772 330
799.8 MB 12 minutes 684 16
761.9 MB 15 minutes 539 460

Sharing Widget


Download torrent
108.0 MB
seeders:1214
leechers:386
Titanic's Final Moments



To share this torrent use the code below and insert it into comments, status messages, forum posts or your signature.

Torrent: Titanic's Final Moments

Comments

Latest Searches