Mars 2016 S02E04 Contagion (1080p AMZN WEB DL x265 HEVC 10bit AAC 5 1 Joy) [UTR] torrent download

seeders: 115
leechers: 193
updated:
Added ago by UTRCorp ***** in TV
Torrent Downloaded 10 times.
Info Hash: 06B192DA4B9EBEC1EC2C8D28C8314C9E501ED1F7


Torrent Files

Mars 2016 S02E04 Contagion (1080p AMZN WEB-DL x265 HEVC 10bit AAC 5 1 Joy) [UTR] (Size: 477.9 MB)
  Mars 2016 S02E04 Contagion (1080p AMZN WEB-DL x265 HEVC 10bit AAC 5 1 Joy) [UTR] 477.9 MB

Torrent Description










Media Information

Media Information

Code:

General
Format : Matroska
Format version : Version 4 / Version 2
File size : 478 MiB
Duration : 46 min 56 s
Overall bit rate : 1 423 kb/s
Movie name : Mars 2016 S02E04 Contagion (1080p x265 10bit FS Joy)
Encoded date : UTC 2018-12-05 00:53:55
Writing application : mkvmerge v28.2.0 ('The Awakening') 64-bit
Writing library : libebml v1.3.6 + libmatroska v1.4.9
Writing frontend : StaxRip v2.0, a JoyBell Encode

Video
ID : 1
Format : HEVC
Format/Info : High Efficiency Video Coding
Format profile : Main [email protected]@Main
Codec ID : V_MPEGH/ISO/HEVC
Duration : 46 min 56 s
Bit rate : 1 197 kb/s
Width : 1 920 pixels
Height : 1 080 pixels
Display aspect ratio : 16:9
Frame rate mode : Constant
Frame rate : 23.976 (24000/1001) FPS
Color space : YUV
Chroma subsampling : 4:2:0
Bit depth : 10 bits
Bits/(Pixel*Frame) : 0.024
Stream size : 402 MiB (84%)
Writing library : x265 2.9+8-27d8424c799d:[Windows][GCC 8.2.0][64 bit] 10bit
Encoding settings : cpuid=1111039 / frame-threads=3 / numa-pools=12 / wpp / no-pmode / no-pme / no-psnr / ssim / log-level=2 / input-csp=1 / input-res=1920x1080 / interlace=0 / total-frames=67536 / level-idc=0 / high-tier=1 / uhd-bd=0 / ref=4 / no-allow-non-conformance / no-repeat-headers / annexb / no-aud / no-hrd / info / hash=0 / no-temporal-layers / open-gop / min-keyint=23 / keyint=250 / gop-lookahead=0 / bframes=4 / b-adapt=2 / b-pyramid / bframe-bias=0 / rc-lookahead=80 / lookahead-slices=4 / scenecut=40 / radl=0 / no-intra-refresh / ctu=64 / min-cu-size=8 / no-rect / no-amp / max-tu-size=32 / tu-inter-depth=1 / tu-intra-depth=1 / limit-tu=0 / rdoq-level=2 / dynamic-rd=0.00 / ssim-rd / signhide / no-tskip / nr-intra=0 / nr-inter=0 / no-constrained-intra / strong-intra-smoothing / max-merge=3 / limit-refs=3 / limit-modes / me=3 / subme=3 / merange=57 / temporal-mvp / weightp / no-weightb / no-analyze-src-pics / deblock=0:0 / sao / no-sao-non-deblock / rd=4 / no-early-skip / rskip / no-fast-intra / no-tskip-fast / no-cu-lossless / no-b-intra / no-splitrd-skip / rdpenalty=0 / psy-rd=0.00 / psy-rdoq=1.00 / no-rd-refine / no-lossless / cbqpoffs=0 / crqpoffs=0 / rc=abr / bitrate=1200 / qcomp=0.60 / qpstep=4 / stats-write=0 / stats-read=2 / cplxblur=20.0 / qblur=0.5 / vbv-maxrate=3200 / vbv-bufsize=7400 / vbv-init=0.9 / ipratio=1.40 / pbratio=1.30 / aq-mode=2 / aq-strength=0.80 / cutree / zone-count=0 / no-strict-cbr / qg-size=32 / no-rc-grain / qpmax=69 / qpmin=0 / no-const-vbv / sar=0 / overscan=0 / videoformat=5 / range=0 / colorprim=2 / transfer=2 / colormatrix=1 / chromaloc=0 / display-window=0 / max-cll=0,0 / min-luma=0 / max-luma=1023 / log2-max-poc-lsb=8 / vui-timing-info / vui-hrd-info / slices=1 / no-opt-qp-pps / no-opt-ref-list-length-pps / multi-pass-opt-rps / scenecut-bias=0.05 / no-opt-cu-delta-qp / no-aq-motion / no-hdr / no-hdr-opt / no-dhdr10-opt / no-idr-recovery-sei / analysis-reuse-level=10 / scale-factor=0 / refine-intra=0 / refine-inter=0 / refine-mv=0 / limit-sao / ctu-info=0 / no-lowpass-dct / refine-mv-type=0 / copy-pic=1 / max-ausize-factor=1.0 / no-dynamic-refine / no-single-sei
Default : Yes
Forced : No
Color range : Limited
Matrix coefficients : BT.709

Audio
ID : 2
Format : AAC
Format/Info : Advanced Audio Codec
Format profile : HE-AAC / LC
Codec ID : A_AAC
Duration : 46 min 56 s
Bit rate : 224 kb/s
Channel(s) : 6 channels
Channel positions : Front: L C R, Side: L R, LFE
Sampling rate : 48.0 kHz / 24.0 kHz
Frame rate : 23.438 FPS (1024 spf)
Compression mode : Lossy
Delay relative to video : 31 ms
Stream size : 75.3 MiB (16%)
Language : English
Default : No
Forced : No

Subtitle
ID : 3
Format : UTF-8
Codec ID : S_TEXT/UTF8
Codec ID/Info : UTF-8 Plain Text
Duration : 46 min 52 s
Bit rate : 76 b/s
Count of elements : 636
Stream size : 26.2 KiB (0%)
Language : English
Default : No
Forced : No



Source Information

Code:

Release:
Mars.2016.S02E04.Contagion.1080p.AMZN.WEB-DL.DDP5.1.H.264-SiGMA.mkv (3.03 GBs)



We have no issue with individuals posting or re-uploading our torrents on a platform we aren't on. However, if this is something you'd like to do, please do so in a 'as-is' format. We ask that you do not create a new torrent, include all descriptions you see above including the UTR logo, tags, notes and screenshots. If you'd like to become a permanent poster on a website we don't post to, feel free to get in contact with a UniTeam member.



Related Torrents

torrent name size age seed leech
1.4 GB 1 minute 457 41
938.0 MB 1 minute 462 224
221.1 MB 3 minutes 33 87
411.0 MB 3 minutes 388 221
81.7 MB 3 minutes 507 135

Sharing Widget


Download torrent
477.9 MB
seeders:1214
leechers:386
Mars 2016 S02E04 Contagion (1080p AMZN WEB-DL x265 HEVC 10bit AAC 5 1 Joy) [UTR]



To share this torrent use the code below and insert it into comments, status messages, forum posts or your signature.

Torrent: Mars 2016 S02E04 Contagion (1080p AMZN WEB-DL x265 HEVC 10bit AAC 5 1 Joy) [UTR]

Comments

Latest Searches